Ghoul Season 1 Netflix Web Series All Episodes Free Download In 1080p, 720p HDRip, 720p WEBRip and 480p Quality Encoded In x264 In Multiple Audio Languages [Hindi + English + Tamil + Telugu] With English Subtitles.

Ghoul Season 1 Netflix Series Free Download 1080p, 720p, 480p

Details Of Full Length Free Videos

Title: Ghoul Netflix Web Series Download
Genres: Horror
Country: India
Language: English | Hindi
Release Date: 24 August 2018
Quality: 1080p | 720p HDRip | 720p WEBRip | 480p
Size: 4.3-GB | 1.48-GB | 1.3-GB | 398-MB
Format: MKV
Subtitle: English

IMDb | Netflix

Storyline

Ghoul Netflix Download Complete Series A prisoner arrives at a remote military interrogation centre and turns the tables on his interrogators, exposing their most shameful secrets.

Ghoul is an Indian horror web television miniseries, it is the second Netflix original from India. The series is written and directed by Patrick Graham and jointly produced by Jason Blum, Anurag Kashyap, Ryan Turek, Vikramaditya Motwane, Michael Hogan, Kilian Kerwin, John Penotti and Suraj Gohill under their respective banners Blumhouse Productions, Phantom Films and Ivanhoe Pictures. 1080p Full HD Episodes Download.

It stars Radhika Apte and Manav Kaul. In February 2018, Netflix acquired the film and turned it into a miniseries. 720p HDRip Episodes.

Nida Rahim is a newly produced military officer who is fiercely loyal to the authoritarian regime and does not hesitate to even report her own father for misconduct. She is appointed at a covert military detention center to interrogate Ali Saeed, a recent prisoner. However, he turns the tables on his interrogators, exposing their most shameful secrets. Rahim comes to the conclusion that those prisoners were not from their world.

Ghoul Season 1 Netflix Cast

  • Radhika Apte as Nida Rahim
  • Manav Kaul as Dacunha
  • Ratnabali Bhattacharjee as Laxmi
  • Mahesh Balraj as Ali Saeed
  • Mallhar Goenka as Babloo

Episode #1.1
After exposing her father’s anti-government activities, Nida Rahim is inducted as the newest interrogator at the remote Meghdoot 31 detention centre.

Episode #1.2
Flashes of the past begin to haunt Nida. When sect leader Ali Saeed is brought for questioning, his unnerving answers lead her to suspect his motives.

Episode #1.3
Nida learns of the Ghoul inhabiting Seed. Upon telling her fellow interrogators, she learns the alarming truth about what its presence reveals.

Ghoul Season 1- 1080p WEB-HD x264 DD 5.1 (Hindi + Tamil + Telugu + Eng) + English Subtitles

Ghoul Season 1- 1080p WEB-HD x264 DD 5.1 (Hindi + Tamil + Telugu + Eng) + English Subtitles

Ghoul Season 1 Netflix Series All Episodes Free Download 1080p Full HD

Ghoul Season 1 Netflix Series All Episodes Free Download 1080p Full HD

Ghoul Season 1 Netflix Series All Episodes Free Download 1080p Full HD

General
Unique ID : 290304681028058488078316383853240934473 (0xDA66A5D77378BB6A7D4A9601AC906049)
Complete name : D:\HDFRAEN1134\[MovCr.com] – Ghoul (2018) 1080p – WEB-HD – x264 – [Hindi + Tamil + Telugu + Eng] – 3.3GB – MovCr.mkv
Format : Matroska
Format version : Version 4 / Version 2
File size : 3.17 GiB
Duration : 2 h 9 min
Overall bit rate : 3 497 kb/s
Movie name : www.MovCr.com
Encoded date : UTC 2018-08-24 11:21:40
Writing application : mkvmerge v25.0.0 (‘Prog Noir’) 64-bit
Writing library : libebml v1.3.6 + libmatroska v1.4.9

Video
ID : 1
Format : AVC
Format/Info : Advanced Video Codec
Format profile : [email protected]
Format settings : CABAC / 2 Ref Frames
Format settings, CABAC : Yes
Format settings, ReFrames : 2 frames
Muxing mode : Container [email protected]
Codec ID : V_MPEG4/ISO/AVC
Duration : 2 h 9 min
Bit rate : 2 983 kb/s
Width : 1 920 pixels
Height : 1 080 pixels
Display aspect ratio : 16:9
Frame rate mode : Constant
Frame rate : 24.000 FPS
Color space : YUV
Chroma subsampling : 4:2:0
Bit depth : 8 bits
Scan type : Progressive
Bits/(Pixel*Frame) : 0.060
Stream size : 2.70 GiB (85%)
Title : www.MovCr.com
Default : Yes
Forced : No

Audio #1
ID : 2
Format : MPEG Audio
Format version : Version 1
Format profile : Layer 3
Format settings : Joint stereo / MS Stereo
Codec ID : A_MPEG/L3
Codec ID/Hint : MP3
Duration : 2 h 9 min
Bit rate mode : Constant
Bit rate : 128 kb/s
Channel(s) : 2 channels
Sampling rate : 44.1 kHz
Frame rate : 38.281 FPS (1152 SPF)
Compression mode : Lossy
Stream size : 118 MiB (4%)
Title : www.MovCr.com
Language : Hindi
Default : Yes
Forced : No

Audio #2
ID : 3
Format : MPEG Audio
Format version : Version 1
Format profile : Layer 3
Format settings : Joint stereo / MS Stereo
Codec ID : A_MPEG/L3
Codec ID/Hint : MP3
Duration : 2 h 9 min
Bit rate mode : Constant
Bit rate : 128 kb/s
Channel(s) : 2 channels
Sampling rate : 44.1 kHz
Frame rate : 38.281 FPS (1152 SPF)
Compression mode : Lossy
Stream size : 118 MiB (4%)
Title : www.MovCr.com
Language : Tamil
Default : No
Forced : No

Audio #3
ID : 4
Format : MPEG Audio
Format version : Version 1
Format profile : Layer 3
Format settings : Joint stereo / MS Stereo
Codec ID : A_MPEG/L3
Codec ID/Hint : MP3
Duration : 2 h 9 min
Bit rate mode : Constant
Bit rate : 128 kb/s
Channel(s) : 2 channels
Sampling rate : 44.1 kHz
Frame rate : 38.281 FPS (1152 SPF)
Compression mode : Lossy
Stream size : 118 MiB (4%)
Title : www.MovCr.com
Language : Telugu
Default : No
Forced : No

Audio #4
ID : 5
Format : MPEG Audio
Format version : Version 1
Format profile : Layer 3
Format settings : Joint stereo / MS Stereo
Codec ID : A_MPEG/L3
Codec ID/Hint : MP3
Duration : 2 h 9 min
Bit rate mode : Constant
Bit rate : 128 kb/s
Channel(s) : 2 channels
Sampling rate : 44.1 kHz
Frame rate : 38.281 FPS (1152 SPF)
Compression mode : Lossy
Stream size : 118 MiB (4%)
Title : www.MovCr.com
Language : English
Default : No
Forced : No

Ghoul Season 1- 720p HDRip x264 (Hindi + Tamil + Telugu + Eng)

Ghoul Season 1- 720p HDRip x264 (Hindi + Tamil + Telugu + Eng)

Ghoul Season 1 Netflix Series All Episodes Free Download 720p HDRip HD

Ghoul Season 1 Netflix Series All Episodes Free Download 720p HDRip HD

Ghoul Season 1 Netflix Series All Episodes Free Download 720p HDRip HD

General
Unique ID : 212941840129025543861914431444181446747 (0xA0331B4C37C03D3358896F048B95F05B)
Complete name : D:\HDFRAEN1134\[MovCr.com] – Ghoul (2018) 720p – HDRip – x264 – [Hindi + Tamil + Telugu + Eng] – 1.5GB – MovCr.mkv
Format : Matroska
Format version : Version 4 / Version 2
File size : 1.48 GiB
Duration : 2 h 9 min
Overall bit rate : 1 633 kb/s
Movie name : www.MovCr.com
Encoded date : UTC 2018-08-24 11:59:38
Writing application : mkvmerge v25.0.0 (‘Prog Noir’) 64-bit
Writing library : libebml v1.3.6 + libmatroska v1.4.9

Video
ID : 1
Format : AVC
Format/Info : Advanced Video Codec
Format profile : [email protected]
Format settings : CABAC / 4 Ref Frames
Format settings, CABAC : Yes
Format settings, ReFrames : 4 frames
Codec ID : V_MPEG4/ISO/AVC
Duration : 2 h 9 min
Bit rate : 1 381 kb/s
Width : 1 280 pixels
Height : 544 pixels
Display aspect ratio : 2.35:1
Frame rate mode : Constant
Frame rate : 24.000 FPS
Color space : YUV
Chroma subsampling : 4:2:0
Bit depth : 8 bits
Scan type : Progressive
Bits/(Pixel*Frame) : 0.083
Stream size : 1.24 GiB (84%)
Title : www.MovCr.com
Writing library : x264 core 155 r2901 7d0ff22
Encoding settings : cabac=1 / ref=1 / deblock=1:0:0 / analyse=0x3:0x113 / me=hex / subme=2 / psy=1 / psy_rd=1.00:0.00 / mixed_ref=0 / me_range=16 / chroma_me=1 / trellis=0 / 8x8dct=1 / cqm=0 / deadzone=21,11 / fast_pskip=1 / chroma_qp_offset=0 / threads=12 / lookahead_threads=4 / sliced_threads=0 / nr=0 / decimate=1 / interlaced=0 / bluray_compat=0 / constrained_intra=0 / bframes=3 / b_pyramid=2 / b_adapt=1 / b_bias=0 / direct=1 / weightb=1 / open_gop=0 / weightp=1 / keyint=240 / keyint_min=24 / scenecut=40 / intra_refresh=0 / rc_lookahead=10 / rc=abr / mbtree=1 / bitrate=1381 / ratetol=1.0 / qcomp=0.60 / qpmin=0 / qpmax=69 / qpstep=4 / vbv_maxrate=62500 / vbv_bufsize=78125 / nal_hrd=none / filler=0 / ip_ratio=1.40 / aq=1:1.00
Default : Yes
Forced : No
Color range : Limited
Color primaries : BT.709
Transfer characteristics : BT.709
Matrix coefficients : BT.709

Audio #1
ID : 2
Format : MPEG Audio
Format version : Version 1
Format profile : Layer 3
Format settings : Joint stereo / MS Stereo
Codec ID : A_MPEG/L3
Codec ID/Hint : MP3
Duration : 2 h 9 min
Bit rate mode : Constant
Bit rate : 64.0 kb/s
Channel(s) : 2 channels
Sampling rate : 44.1 kHz
Frame rate : 38.281 FPS (1152 SPF)
Compression mode : Lossy
Stream size : 59.3 MiB (4%)
Title : www.MovCr.com
Writing library : LAME3.98.2
Language : Hindi
Default : Yes
Forced : No

Audio #2
ID : 3
Format : MPEG Audio
Format version : Version 1
Format profile : Layer 3
Format settings : Joint stereo / MS Stereo
Codec ID : A_MPEG/L3
Codec ID/Hint : MP3
Duration : 2 h 9 min
Bit rate mode : Constant
Bit rate : 64.0 kb/s
Channel(s) : 2 channels
Sampling rate : 44.1 kHz
Frame rate : 38.281 FPS (1152 SPF)
Compression mode : Lossy
Stream size : 59.3 MiB (4%)
Title : www.MovCr.com
Writing library : LAME3.98.2
Language : Tamil
Default : No
Forced : No

Audio #3
ID : 4
Format : MPEG Audio
Format version : Version 1
Format profile : Layer 3
Format settings : Joint stereo / MS Stereo
Codec ID : A_MPEG/L3
Codec ID/Hint : MP3
Duration : 2 h 9 min
Bit rate mode : Constant
Bit rate : 64.0 kb/s
Channel(s) : 2 channels
Sampling rate : 44.1 kHz
Frame rate : 38.281 FPS (1152 SPF)
Compression mode : Lossy
Stream size : 59.3 MiB (4%)
Title : www.MovCr.com
Writing library : LAME3.98.2
Language : Telugu
Default : No
Forced : No

Audio #4
ID : 5
Format : MPEG Audio
Format version : Version 1
Format profile : Layer 3
Format settings : Joint stereo / MS Stereo
Codec ID : A_MPEG/L3
Codec ID/Hint : MP3
Duration : 2 h 9 min
Bit rate mode : Constant
Bit rate : 64.0 kb/s
Channel(s) : 2 channels
Sampling rate : 44.1 kHz
Frame rate : 38.281 FPS (1152 SPF)
Compression mode : Lossy
Stream size : 59.3 MiB (4%)
Title : www.MovCr.com
Writing library : LAME3.98.2
Language : English
Default : No
Forced : No

Ghoul Season 1- 720p WebRip x264 AAC 5.1 (Hindi) + English Subtitles

Ghoul Season 1- 720p WebRip x264 AAC 5.1 (Hindi) + English Subtitles

Ghoul Season 1 Netflix Series All Episodes Free Download 720p WEBRip HD

Ghoul Season 1 Netflix Series All Episodes Free Download 720p WEBRip HD

Ghoul Season 1 Netflix Series All Episodes Free Download 720p WEBRip HD

Ghoul Season 1 Netflix Series All Episodes Free Download 720p WEBRip HD

Ghoul Season 1 Netflix Series All Episodes Free Download 720p WEBRip HD

Source…….: DTOne Untouched (Thanks)
Encoded By…: mkvCinemas

Mediainfo:-
Video: 720p
Audio: 192 kbps AAC 5.1

Ghoul Season 1- 480p x264

Ghoul Season 1- 480p x264

Ghoul Season 1 Netflix Series All Episodes Free Download 480p x264

Ghoul Season 1 Netflix Series All Episodes Free Download 480p x264

Ghoul Season 1 Netflix Series All Episodes Free Download 480p x264

Ghoul Season 1 Netflix Series All Episodes Free Download 480p x264

MEDIAINFO
Container = Matroska (mkv)
Duration = 00:49:36.439
Filesize = 151 MiB
–ViDEO
Codec info = AVC [email protected] | V_MPEG4/ISO/AVC
Resolution = 640×480
Display AR = 2.397 | 2.40:1
Bitrate = 289 kb/s
Framerate = VFR
Color space = YUV
Chroma subsampling = 4:2:0
Encoder = x264 – core 157 r2932 303c484
–AUDiO
Codec info = MPEG Audio Layer 3 | A_MPEG/L3
Channels = 2
Bitrate = CBR 128 kb/s
Samplerate = 48.0 kHz
Language = Hindi

Watch The Full HD 720p, 1080p Movie Trailers

Watch Ghoul Season 1 Netflix Series Trailer

Direct Download Links Of Ghoul Season 1 Complete [1080p+720p+480] Given Below

Free Download Direct Links HD

Direct Links For Premium Users

If you are the member of this site then enter your login details and Enjoy Direct Links

5 Comments

  1. Ujas

    August 26, 2018 at 2:21 am

    I pay for memebership but i don’t get any password or id what should i do ??? And no episode download by normal method its showing network error

    Reply

    • admin

      admin

      August 26, 2018 at 2:34 am

      You Are Using Payumoney For payment and it needs manual activation of account so it takes some time. If you use Paypal then your account was activated automatically after payment. Well we send you your login details, Check your mail.

      Reply

  2. Bardock11

    August 27, 2018 at 11:36 am

    I was Downloading Episode 1 and Then It Shows that Mirrace.com didn’t respond plz help

    Reply

  3. Rahul Sharma

    August 28, 2018 at 12:04 pm

    i have installed and connected the TOUCH VPN also

    Reply

Leave a Reply

Your email address will not be published. Required fields are marked *

Check Also

Yamla Pagla Deewana Phir Se 2018 Hindi 720p WEBRip x264 – 1.1 GB

Yamla Pagla Deewana Phir Se Full Movie Direct Download In 720p HD WEBRip Quality Encoded I…